《H2好逑双物语原声角色歌集》(H2)[Original Album][APE]

《H2好逑双物语原声角色歌集》(H2)[Original Album][APE]
  • 片  名  《H2好逑双物语原声角色歌集》(H2)[Original Album][APE]
  • 简  介  Douban1768286:8.0(770 votes)发行时间: 1995年11月22日对白语言: 日语文字语言: 日文
  • 类  别  动漫
  • 小  类  动漫周边


  • 详细介绍中文名: H2好逑双物语原声角色歌集英文名: H2资源格式: APE版本: [Original Album]发行时间: 1995年11月22日地区: 日本对白语言: 日语文字语言: 日文简介: 【动画故事简介】
    作者:安达充
    简介:前后8年连载,《H2》是目前安达充最长的作品。又是一部以高校棒球、甲子园为题材的作品,但读者最为瞩目的焦点却始终是四位主人公——比吕、英雄、雅玲、春华的感情归宿;而最终安达充给出的结局引起了安达迷们的诸多争执。作品的精彩是无庸质疑的。一曲青春的赞歌,延续了安达充所有的优点。而且它也是安达充所有作品中画质最精美的一部。虽然冗长的棒球比赛可能使不少不玩棒球的读者生出摸不着北的感觉;从结局看也不是那么轻松,却无疑是安达作为一个漫画家的巅峰之作!
    【专辑介绍】
    發賣元:KING Records
    發賣日:1995/11/21
    品番:KICA-287
    價格:¥3,000
    这张专辑收录了为H2好逑双物语动画版添彩的四位主角每人一段主题演绎(包括一首主题曲),及合唱的OP「虹のグランドスラム」。当然,重要的受大家喜爱的,木根同学的主题自然是不会少了。
    分享给喜欢《H2》的朋友。
    ADSL 2M做源。
    也请下完了的同学发扬雷锋精神,不要马上移走文件,谢谢合作!
    为了便于共享,我只发布原来压缩包内的APE文件。
    各位驴友,请下载我在一楼给出的.cue文件并将其和.ape文件放在同一目录下,即可直接欣赏,而无须解压改变文件Hash或移走文件。
    【艺术家与制作人】
    古本新之輔,今村恵子,宮本充,鈴木真仁等
    【收录曲目】
    01. 比呂エピソード
    02. ダッシュする風 [古本新之輔]
    03. ひかりエピソード
    04. 心まかせのDiary[今村恵子]
    05. 英雄 木根エピソード
    06. 俺達の季節 [宮本充]
    07. 春華エピソード
    08. 夢のありかへ連れていって [鈴木真仁]
    09. エピローグ
    10. 虹のグランドスラム (H2メインキャラバージョン) [古本新之輔,今村恵子,宮本充,鈴木真仁]
  • 《H2好逑双物语原声角色歌集》(H2)[Original Album][APE]_large

精选评论

以下为CUE文件内容(或直接下载[动漫原声角色歌集][H2.-.好逑双物语].专辑.(APE).cue):


以下为音乐声谱图(log不幸遗失):
以下为CUE文件内容:
引用REM DISCID 990E070A
REM COMMENT "ExactAudioCopy v0.99pb4"
PERFORMER "岩代太郎"
TITLE "H2 Original Album"
FILE "[动漫原声角色歌集][H2.-.好逑双物语].专辑.(APE).ape" WAVE
TRACK 01 AUDIO
TITLE "比呂エピソード"
PERFORMER "岩代太郎"
INDEX 01 00:00:00
TRACK 02 AUDIO
TITLE "ダッシュする風"
PERFORMER "岩代太郎"
INDEX 01 10:57:00
TRACK 03 AUDIO
TITLE "ひかりエピソード"
PERFORMER "岩代太郎"
INDEX 00 15:44:67
INDEX 01 15:46:40
TRACK 04 AUDIO
TITLE "心まかせのDiary"
PERFORMER "岩代太郎"
INDEX 01 26:40:22
TRACK 05 AUDIO
TITLE "英雄&木根エピソード"
PERFORMER "岩代太郎"
INDEX 00 31:12:19
INDEX 01 31:14:02
TRACK 06 AUDIO
TITLE "俺達の季節"
PERFORMER "岩代太郎"
INDEX 01 39:46:27
TRACK 07 AUDIO
TITLE "春華エピソード"
PERFORMER "岩代太郎"
INDEX 01 43:47:00
TRACK 08 AUDIO
TITLE "夢のありかへ連れていって"
PERFORMER "岩代太郎"
INDEX 01 52:28:22
TRACK 09 AUDIO
TITLE "エピローグ"
PERFORMER "岩代太郎"
INDEX 00 57:19:07
INDEX 01 57:21:15
TRACK 10 AUDIO
TITLE "虹のグランドスラム"
PERFORMER "岩代太郎"
INDEX 01 57:59:32

以下为音乐声谱图(log不幸遗失):
就是它了 谢谢啊 感激
好东西啊,大爱安达充,感谢楼主了~~~
这部漫画改编的日剧也不错
欧麦嘎~~~~

可是我都没看过H2的动画,也没看到有下的,残念
PS:我想要touch原声~~~~~~~电驴上只有128K的MP3
还有一FLAC无源
楼主放源吖,完全没速度~
这部动画的“青春”和“back to the ground”我很喜欢

「青春」是Touch的ED2,「back to the ground」是H2的OP2。;-)
有Touch的么 谢谢LZ
H2好逑双物语???= =b还是甲子园这名字好听。。。。。。
真人电视版的原声也很好听。