李娜 -《中华歌坛名人百集珍藏版 》[APE]

李娜 -《中华歌坛名人百集珍藏版 》[APE]
  • 片  名  李娜 -《中华歌坛名人百集珍藏版 》[APE]
  • 简  介  无
  • 类  别  音乐
  • 小  类  华语音乐


  • 详细介绍专辑中文名: 中华歌坛名人百集珍藏版歌手: 李娜资源格式: APE简介:
    专辑简介:
    李娜以自己独特的歌声和深厚的声乐艺术功底屹立在中国歌坛的高峰。她的歌声高昂激越,委婉深沉,风趣诙谐,还透着质朴,犹如她的为人,曾先后为《渴望》,《唐明皇》,《武则天》等二百五十多部(集)电视剧录制了主题歌和插曲,为广大听众留下了《好人一生平安》,《嫂子颂》,《青藏高原》,《女人是老虎》等令人眷恋的歌曲。
  • 李娜 -《中华歌坛名人百集珍藏版 》[APE]_large

精选评论

经典啊楼主谢谢啦
以后谁要是去张家界,一定要上天门山看看李娜小屋,那是李娜出家的地方。绝对的金嗓子!赞!
李娜的声音绝对是一代经典……
现在很难找到像她这样的歌手了……
最爱她的电视剧主题曲!
挺好。
谢谢楼主分享!
感谢楼主!!! 李娜的一些经典歌曲都是从小就听的 很有韵味
怎么没有源了呢?
没有源了
这个必须收藏!我们一家人都喜欢听。
第一首"青藏高原"是MP3转的,哎呀呀,真是毁歌啊!
其他的歌都是CDDA的
很经典的!谢谢LZ
CUE没歌名,我重做了一个,复制后粘贴在记事本上,保存为CUE即可

PERFORMER "李娜"
TITLE "李娜.-.[中华歌坛名人百集珍藏版].专辑.(APE)"
FILE "李娜.-.[中华歌坛名人百集珍藏版].专辑.(APE).ape" WAVE
TRACK 01 AUDIO
TITLE "青藏高原"
PERFORMER "李娜"
FLAGS DCP
INDEX 00 00:00:00
INDEX 01 00:00:01
TRACK 02 AUDIO
TITLE "嫂子颂"
PERFORMER "李娜"
FLAGS DCP
INDEX 01 03:46:56
TRACK 03 AUDIO
TITLE "女人是老虎"
PERFORMER "李娜"
FLAGS DCP
INDEX 01 06:47:32
TRACK 04 AUDIO
TITLE "走进西藏"
PERFORMER "李娜"
FLAGS DCP
INDEX 01 10:11:52
TRACK 05 AUDIO
TITLE "唐明皇"
PERFORMER "李娜"
FLAGS DCP
INDEX 01 14:10:41
TRACK 06 AUDIO
TITLE "从前有座山"
PERFORMER "李娜"
FLAGS DCP
INDEX 01 17:06:53
TRACK 07 AUDIO
TITLE "圆圆的世界"
PERFORMER "李娜"
FLAGS DCP
INDEX 01 19:47:00
TRACK 08 AUDIO
TITLE "好人一生平安"
PERFORMER "李娜"
FLAGS DCP
INDEX 01 23:43:67
TRACK 09 AUDIO
TITLE "说聊斋"
PERFORMER "李娜"
FLAGS DCP
INDEX 01 28:22:16
TRACK 10 AUDIO
TITLE "啊啦里哟"
PERFORMER "李娜"
FLAGS DCP
INDEX 01 32:30:09
TRACK 11 AUDIO
TITLE "你家在哪里"
PERFORMER "李娜"
FLAGS DCP
INDEX 01 36:36:32
TRACK 12 AUDIO
TITLE "城里人与乡下人"
PERFORMER "李娜"
FLAGS DCP
INDEX 01 40:44:40
TRACK 13 AUDIO
TITLE "红裙子,绿裙子,黄裙子"
PERFORMER "李娜"
FLAGS DCP
INDEX 01 44:52:55
TRACK 14 AUDIO
TITLE "人间终有真情在"
PERFORMER "李娜"
FLAGS DCP
INDEX 01 47:59:34
TRACK 15 AUDIO
TITLE "武则天"
PERFORMER "李娜"
FLAGS DCP
INDEX 01 51:29:38
多谢楼主 也感谢12楼的CUE重编 辛苦啦
第一首"青藏高原"是MP3转的??????????????????????????????
真的??????????????
各位说说啊