林霞 -《天天想你》[DSD][APE]

林霞 -《天天想你》[DSD][APE]
  • 片  名  林霞 -《天天想你》[DSD][APE]
  • 简  介  音乐风格: 流行发行时间: 2008年10月地区: 大陆语言: 普通话
  • 类  别  音乐
  • 小  类  华语音乐


  • 详细介绍专辑中文名: 天天想你歌手: 林霞音乐风格: 流行资源格式: APE版本: [DSD]发行时间: 2008年10月地区: 大陆语言: 普通话简介: 发行公司:广东博雅文化音像有限公司
    出版公司:广东音像出版社
    ISRC:CN-F28-08-331-00/A.J6
    专辑介绍:
    一个用心唱歌的女孩,她喜欢在歌声中寻找自己的影子,
    同时也把自己每一天的心情清晰烙印在每一段优美的旋律上。
    人们常说眼睛是心灵的窗户,那么歌声就是人们情感的化身,
    我们在看到歌者身影的同时,从中也在寻找自己的影子。
    林霞总是很固执得反复哼唱歌曲的每一小节,
    把唱歌当成为一种工作;她从不觉得它很枯燥,
    这已是生活的部分,一种自然而然得的习惯,
    也是一种自我的表达方式。所以聆听林霞的声音,
    我们不仅是用耳朵去倾听,我们更能用心去感受,
    这也使我们可以反反复复的触摸
    到这份情感,每一次总会有每一镒的感动,天天想你—林霞。
  • 林霞 -《天天想你》[DSD][APE]_large

精选评论

CUE文件名: 林霞.-.[天天想你].专辑.(ape).cue
----------------------------------------------------------------------------


PERFORMER"林霞"
TITLE "天天想你"
FILE "林霞.-.[天天想你].专辑.(ape).ape" WAVE
TRACK 01 AUDIO
TITLE "坐上火车去拉萨"
PERFORMER "林霞"
FLAGS DCP
INDEX 01 00:00:00
TRACK 02 AUDIO
TITLE "爱情重点"
PERFORMER "林霞"
FLAGS DCP
INDEX 01 04:17:58
TRACK 03 AUDIO
TITLE "遇上你是我的缘"
PERFORMER "林霞"
FLAGS DCP
INDEX 01 08:40:13
TRACK 04 AUDIO
TITLE "有一种爱叫放手"
PERFORMER "林霞"
FLAGS DCP
INDEX 01 12:17:18
TRACK 05 AUDIO
TITLE "家乡"
PERFORMER "林霞"
FLAGS DCP
INDEX 01 16:52:38
TRACK 06 AUDIO
TITLE "爱死了昨天"
PERFORMER "林霞"
FLAGS DCP
INDEX 01 20:57:23
TRACK 07 AUDIO
TITLE "跟着感觉走"
PERFORMER "林霞"
FLAGS DCP
INDEX 01 24:55:69
TRACK 08 AUDIO
TITLE "我的未来不是梦"
PERFORMER "林霞"
FLAGS DCP
INDEX 01 30:01:11
TRACK 09 AUDIO
TITLE "明明知道相思苦"
PERFORMER "林霞"
FLAGS DCP
INDEX 01 34:28:34
TRACK 10 AUDIO
TITLE "风雨彩虹铿锵玫瑰"
PERFORMER "林霞"
FLAGS DCP
INDEX 01 39:37:27
TRACK 11 AUDIO
TITLE "再回首"
PERFORMER "林霞"
FLAGS DCP
INDEX 01 44:30:38
TRACK 12 AUDIO
TITLE "天天想你"
PERFORMER "林霞"
FLAGS DCP
INDEX 01 48:59:21



-------------------------------------------------------------------------------------



12个单曲.WAV经auCDtect.exe软件检测CDDA概率100%。
感谢楼主的分享,在下载中,再次感谢!!呵呵
找很久了,万分感谢楼主!你辛苦了!
楼主大人,啥时候放源??
换了个资源。
原来的资源因为CDDA概率不好,检测后就没有申请加精,所以也没放源。今天换了个山寨口水,要APE就是来真的APE。
删了几楼无关本资源的评论,请见谅!
再来看看
作为一名歌手,用心唱歌更胜于嗓音的甜美
未曾听过的新人,我支持新人,不知唱功录音效果如何,驴下试听再说。
大陆最近专辑怎么都是发烧?
下载完了,试听一下,确实不错,首先是录音效果很好,再者,林霞的嗓音有自已的特色,对歌曲的演绎也很不错,之前坐上火车去拉萨这首歌觉得只有徐千雅唱得好,林霞也唱得不错,第二首歌也唱得很好。听过两首就知道歌手的实力,值得推荐,帮忙做源。谢过楼主!
锡福堂先生:
在此,我,包括热心支持我的朋友以及正在下载这个专辑的所有朋友谨向您表示最诚意的感谢,感谢您为我们大家分流......
后面几首歌选的不是很合适。
cue: