Swedish Radioproudly presents multichannel sound for radio -《DTS发烧试音碟-5.1声道》(DTS-HIFI 5.1)

Swedish Radioproudly presents multichannel sound for radio -《DTS发烧试音碟-5.1声道》(DTS-HIFI 5.1)
  • 片  名  Swedish Radioproudly presents multichannel sound for radio -《DTS发烧试音碟-5.1声道》(DTS-HIFI 5.1)
  • 简  介  发行时间: 2007年
  • 类  别  音乐
  • 小  类  其它音乐


  • 详细介绍专辑中文名: DTS发烧试音碟-5.1声道专辑英文名: DTS-HIFI 5.1艺术家: Swedish Radioproudly presents multichannel sound for radio发行时间: 2007年地区: 瑞典语言: 英语简介:
    [通过安全测试]
    杀毒软件:Symantec AntiVirus
    版本: 10.0.2.2000
    病毒库:2007-01-25
    共享时间:每天开机即共享因本人是铁通1M的ADSL所以速度在35KB/S,高于35KB/S上网速度没法上所以不好意思只能限速在35KB/S,望理解 希望大家能帮忙分流。没源可PM本人
    共享服务器:不定时在DonkeyServer No1-DonkeyServer No6
    BiG BanG1 -BiG BanG 10服务器之间
    [通过安装测试]WindowsXP SP2
    压缩码率:DTS 5.1 -1411 Kbps
    专辑介绍:
    这是本人从瑞典一个Swedish Radio proudly presents multichannel sound for radio网站下载整理过来的。
    里面包括6首DTS发烧试音歌曲,我已经刻录成NERO光盘映象文件了。下载完后可以直接刻盘或者用虚拟光驱用POWERDVD或者WINDVD打开就可,但是前提是DTS解码必须要破解!前四首是属于测试的,后两首属于交响乐。效果绝对会让你满意的,我在家用多媒体音箱就能感觉到它的震撼性了,更别说是家庭影院的效果了,喜欢的朋友千万别错过。特别是要想去买箱子和功放的朋友此盘千万不能错过,带上此盘去测试吧,保你没错!
    如果你有音响的话你可以直接刻盘去享受吧,绝对不会让你失望的一个DTS测试发烧碟。其实我下了很多DTS音轨,其中这6首是个人觉得最有意义的。别的都给删除了,而且这6首的容量正好快一张CD的容量了。希望喜欢DTS发烧的朋友会喜欢!
    我可以提供大家一个网站去找更多的DTS测试音轨:
    点我进入
    专辑曲目:
    因歌曲名和介绍当时没有保留,所以回头再收集下整理好歌曲名称补上来!
    以下是本人在用POWERDVD6播放时截的图片
  • Swedish Radioproudly presents multichannel sound for radio -《DTS发烧试音碟-5.1声道》(DTS-HIFI 5.1)_large

精选评论

下来试试,谢谢
以前怎么没发现?谢谢楼主分享!
一直在找5.1声道的测试碟,现在一网尽是!赶快吧!还有什么说的?
不晓得还有没有源哦
没想到这个碟效果这么好!~感谢楼主!
感谢LZ,我要下的~~
"前四首是属于测试的,后两首属于交响乐。效果绝对会让你满意的".效果很好,低音很牛!

真有这么好么 别是吹的 哦

我是听了才发的言.
LZ 请提供歌曲名
我做了个cue文件。用foobar2000 可以直接播放,效果还行吧,就是觉得音量小了点(和同类音频文件相比)
REM DISCID B70DC50D
REM COMMENT "ExactAudioCopy v0.99pb1"
PERFORMER "dts试音精品"
TITLE "专业测试音频及施特劳斯著名园舞曲"
FILE "dts-试音碟.dts" WAVE
TRACK 01 AUDIO
TITLE "测试音频"
PERFORMER "未知"
INDEX 01 00:00:00
TRACK 02 AUDIO
TITLE "测试音频"
PERFORMER "未知"
INDEX 00 14:22:21
INDEX 01 14:26:30
TRACK 03 AUDIO
TITLE "测试音频"
PERFORMER "未知"
INDEX 00 20:08:47
INDEX 01 20:12:40
TRACK 04 AUDIO
TITLE "交响乐序曲"
PERFORMER "未知"
INDEX 00 22:20:69
INDEX 01 22:25:55
TRACK 05 AUDIO
TITLE "皇帝圆舞曲"
PERFORMER "未知"
INDEX 00 33:45:58
INDEX 01 33:48:43
TRACK 06 AUDIO
TITLE "春之声圆舞曲"
PERFORMER "未知"
INDEX 00 47:14:05
INDEX 01 47:18:00
下载完了,想做成光盘放在DVD机中,刻录完后放在机器里面可以看到文件在播放就是没有声音出来,已确定机器没有问题,估计是刻录方式错误,请大虾帮忙。谢谢!
很好