原声大碟 -《KOF原声音乐》(The King Of Fighters)无损合集(更新2K01,2K03)

原声大碟 -《KOF原声音乐》(The King Of Fighters)无损合集(更新2K01,2K03)
  • 片  名  原声大碟 -《KOF原声音乐》(The King Of Fighters)无损合集(更新2K01,2K03)
  • 简  介  Douban2365878:8.7(744 votes)发行时间: 2000年
  • 类  别  音乐
  • 小  类  原声音乐


  • 详细介绍简介: 专辑介绍:
    KOF是非常精典的格斗游戏,我整整的为它疯狂了6年。只可惜在SNK倒闭以后KOF一直在走下坡路,作为一个KOF的fans我个人认为KOF到2000就已经完结了。
    前一段时间在整理光碟时翻出这两张CD,听到这两张CD时我就想起当年在街机房热血沸腾时的情景,于是我决定把它共享出来,它的每一首背景音乐都独到的表现了每一个队伍的性格和特点。 现在大家就和我一起回忆当年的美好时光吧。


    PS2音轨版PS2音轨版PS2音轨版
  • 原声大碟 -《KOF原声音乐》(The King Of Fighters)无损合集(更新2K01,2K03)_large

精选评论

为什么没97的啊
D一下楼主:KOF到2000就已经完结了
..........怎麽沒有2002的~~和XI的?
好可惜哦。。。这么好的cd,居然下不起了。楼主可以再次上传吗?感谢了。
98,99,2000的音乐那是没的说了,这也是一件事物发展到巅峰必然会出现的现象。
2001,2002,2003的音乐,说得粗俗一点,那就是屎,就是屎,像我这样的拳皇爱好者简直不能容忍。
KOF98之后的版本都不是SNK出品的,所以无收藏和使用的任何价值,本人只想要KOF96的街机原版音乐,是KOF系列的巅峰之作。
98以后的全是屎,什么2000还是多少的,我看着就恶心,还是96最经典,97最完美,98最有乐趣!
喜欢拳皇漫画的来看看

拳皇漫画96--2003,极限冲击,拳皇Z,拳皇京全集
楼主可以放2003AST的源吗?我已经等了两个多星期了,停在46%,谢谢啊!

2000音乐最好听

说的太对了,2000之后的游戏都是垃圾,可玩性几乎没有
KOF2000

REM GENRE Soundtrack
REM DATE 2000
TITLE "The King Of Fighters 2000 AST"
FILE "THE KING OF FIGHTERS 2000 BY PlayStation2 SOUND TRAX ~ ARRANGE SOUND TRAX.bin" BINARY
TRACK 01 AUDIO
TITLE "KD-0084 (主人公チーム)"
INDEX 01 00:00:00
TRACK 02 AUDIO
TITLE "INNER SHADE (红丸チーム)"
INDEX 01 05:03:36
TRACK 03 AUDIO
TITLE "TERRY115 (饿狼伝説チーム)"
INDEX 01 09:06:42
TRACK 04 AUDIO
TITLE "Beauty & The Beast (龙虎の拳チーム)"
INDEX 01 13:00:24
TRACK 05 AUDIO
TITLE "The Trooper (怒チーム)"
INDEX 01 16:40:34
TRACK 06 AUDIO
TITLE "Will (サイコソルジャーチーム)"
INDEX 01 19:35:71
TRACK 07 AUDIO
TITLE "Come up smiling (女性格闘家チーム)"
INDEX 01 23:49:07
TRACK 08 AUDIO
TITLE "WILD PARTY (韩国チーム)"
INDEX 01 27:28:29
TRACK 09 AUDIO
TITLE "Good Bye ESAKA (草薙京)"
INDEX 01 31:03:21
TRACK 10 AUDIO
TITLE "Stormy Scream 嵐のサキソフォン4 (八神庵)"
INDEX 01 34:03:57
TRACK 11 AUDIO
TITLE "Ice Place (クーラ·ダイアモンド)"
INDEX 01 36:03:68
TRACK 12 AUDIO
TITLE "SLASHER ZERO (ゼロ)"
INDEX 01 41:01:32
TRACK 13 AUDIO
TITLE "CAT TAIL (中间デモ)"
INDEX 01 46:51:72
TRACK 14 AUDIO
TITLE "DEVIL (ゼロ登场デモ)"
INDEX 01 48:26:41
TRACK 15 AUDIO
TITLE "BE FREEZE (クーラ登场デモ)"
INDEX 01 50:30:43
TRACK 16 AUDIO
TITLE "BE FREEZE -Short Version- (クーラ消灭デモ)"
INDEX 01 50:48:68
TRACK 17 AUDIO
TITLE "DREAM EATER (ゼロ消灭デモ)"
INDEX 01 50:55:10
TRACK 18 AUDIO
TITLE "00 (タイトル)"
INDEX 01 52:00:56
TRACK 19 AUDIO
TITLE "BE·TA Force (How To Play ~ キャラクターセレクト)"
INDEX 01 52:27:37
TRACK 20 AUDIO
TITLE "BE·TA Force2 (セレクト)"
INDEX 01 53:23:33
TRACK 21 AUDIO
TITLE "LV-4 (胜利デモ -チームプレイ时-)"
INDEX 01 53:30:74
TRACK 22 AUDIO
TITLE "SUKUWARELU (コンティニュー)"
INDEX 01 53:40:57
TRACK 23 AUDIO
TITLE "LV-1 (胜利デモ -シングルプレイ时-)"
INDEX 01 54:02:22
TRACK 24 AUDIO
TITLE "CRYSTAL -Type 1- (スタッフロール 主人公チーム)"
INDEX 01 54:09:51
TRACK 25 AUDIO
TITLE "CRYSTAL -Type 2- (スタッフロール 红丸チーム)"
INDEX 01 56:41:65
TRACK 26 AUDIO
TITLE "CRYSTAL -Type 3- (スタッフロール 饿狼伝説チーム)"
INDEX 01 58:40:03
TRACK 27 AUDIO
TITLE "CRYSTAL -Type 4- (スタッフロール 龙虎の拳チーム)"
INDEX 01 60:53:28
TRACK 28 AUDIO
TITLE "CRYSTAL -Type 5- (スタッフロール 怒チーム)"
INDEX 01 62:41:42
TRACK 29 AUDIO
TITLE "CRYSTAL -Type A- (スタッフロール サイコソルジャーチーム)"
INDEX 01 64:56:54
TRACK 30 AUDIO
TITLE "CRYSTAL -Type 6- (スタッフロール 女性格闘家チーム)"
INDEX 01 67:05:31
TRACK 31 AUDIO
TITLE "CRYSTAL -Type 7- (スタッフロール 韩国チーム)"
INDEX 01 69:35:73
TRACK 32 AUDIO
TITLE "CRYSTAL -Type 8- (スタッフロール 草薙京&八神庵)"
INDEX 01 71:50:18
TRACK 33 AUDIO
TITLE "CRYSTAL -Type 9- (スタッフロール クーラ·ダイアモンド)"
INDEX 01 73:40:08
TRACK 34 AUDIO
TITLE "CRYSTAL -Type B- (スタッフロール)"
INDEX 01 76:03:38
经典的 97