原声大碟 -《1994年美国世界杯官方歌曲专辑》(Soccer Rocks the Globe World Cup USA '94)[APE]

原声大碟 -《1994年美国世界杯官方歌曲专辑》(Soccer Rocks the Globe World Cup USA '94)[APE]
  • 片  名  原声大碟 -《1994年美国世界杯官方歌曲专辑》(Soccer Rocks the Globe World Cup USA '94)[APE]
  • 简  介  Douban2229520:8.2(119 votes)发行时间: 1994年5月17日
  • 类  别  音乐
  • 小  类  原声音乐


  • 详细介绍简介: 专辑介绍:
    1994年美国世界杯,群英争战世界杯,94年角逐,音乐是不可或缺的一部分。这张CD是日本版的,分轨抓取,如果有跳音,请及时回复我,呵呵。94年美国世界杯里面最好的一首歌曲我认为是皇后乐团的“我们是冠军”,可是这首歌曲在本CD里面是另外的版本,我也没有听到过。请大家帮我鉴定下,谢谢!
    本CD是我托朋友从日本买回来的,音质大家可以放心。另外这CD是宝丽金公司出版的,大品牌。
    特发布APE,希望大家喜欢。注明VC首发。
  • 原声大碟 -《1994年美国世界杯官方歌曲专辑》(Soccer Rocks the Globe World Cup USA '94)[APE]_large

精选评论

Exact Audio Copy V0.99 prebeta 5 from 4. May 2009

EAC 抓取日志文件从29. 五月 2010, 21:44

Various / Soccer Rocks the Globe: World Cup USA 94

使用驱动器 :TSSTcorpCDDVDW TS-L633C Adapter: 1 ID: 0

读取模式 : 保护
使用精确流 : 是
废除音频缓冲 : 是
使用 C2 指针 : 否

读取偏移校正 : 6
读取 Lead-In 和 Lead-Out : 否
用静音填充抓取中丢失偏移的采样 : 是
去除首尾静音块 : 否
在 CRC 计算中使用了空样本 : 否
已用接口 : Win NT 及 2000 本地 Win32 接口
间隙处理 : 未检出,故附加至前一音轨

所用输出格式 : 内部 WAV 函数
样本格式 : 44.100 Hz;16 Bit;立体声


被抓轨 CD 的 TOC

音轨 | 开始 | 长度 | 起始扇区 | 结尾扇区
--------------------------------------------------
1 | 0:00.37 | 3:04.05 | 37 | 13841
2 | 3:04.42 | 4:09.65 | 13842 | 32581
3 | 7:14.32 | 3:24.58 | 32582 | 47939
4 | 10:39.15 | 4:30.02 | 47940 | 68191
5 | 15:09.17 | 4:41.00 | 68192 | 89266
6 | 19:50.17 | 4:24.70 | 89267 | 109136
7 | 24:15.12 | 5:42.45 | 109137 | 134831
8 | 29:57.57 | 5:31.53 | 134832 | 159709
9 | 35:29.35 | 3:44.47 | 159710 | 176556
10 | 39:14.07 | 2:52.65 | 176557 | 189521
11 | 42:06.72 | 4:49.13 | 189522 | 211209
12 | 46:56.10 | 5:11.17 | 211210 | 234551
13 | 52:07.27 | 4:21.33 | 234552 | 254159
14 | 56:28.60 | 2:59.25 | 254160 | 267609


音轨 1

文件名 G:CD抓轨后目录We Are The Champions.wav

峰值电平 68.0 %
音轨质量 100.0 %
复制 CRC AEC4C4B1
音轨未在 AccurateRip 数据库中
复制成功

音轨 2

文件名 G:CD抓轨后目录Gloryland.wav

峰值电平 100.0 %
音轨质量 100.0 %
复制 CRC 47E8B233
音轨未在 AccurateRip 数据库中
复制成功

音轨 3

文件名 G:CD抓轨后目录Goal, Goal, Goal.wav

峰值电平 94.6 %
音轨质量 100.0 %
复制 CRC E383DFD9
音轨未在 AccurateRip 数据库中
复制成功

音轨 4

文件名 G:CD抓轨后目录New Star.wav

峰值电平 89.3 %
音轨质量 100.0 %
复制 CRC 5C489031
音轨未在 AccurateRip 数据库中
复制成功

音轨 5

文件名 G:CD抓轨后目录This Is The Moment.wav

峰值电平 75.8 %
音轨质量 100.0 %
复制 CRC E2ED79C4
音轨未在 AccurateRip 数据库中
复制成功

音轨 6

文件名 G:CD抓轨后目录Blow By Blow.wav

峰值电平 100.0 %
音轨质量 100.0 %
复制 CRC 148CA421
音轨未在 AccurateRip 数据库中
复制成功

音轨 7

文件名 G:CD抓轨后目录Blaze Of Glory.wav

峰值电平 82.6 %
音轨质量 100.0 %
复制 CRC 71FF8666
音轨未在 AccurateRip 数据库中
复制成功

音轨 8

文件名 G:CD抓轨后目录The Best.wav

峰值电平 93.8 %
音轨质量 99.9 %
复制 CRC 03D79E2C
音轨未在 AccurateRip 数据库中
复制成功

音轨 9

文件名 G:CD抓轨后目录Rock 'N' Roll '94 (Parts I & II).wav

峰值电平 98.7 %
音轨质量 100.0 %
复制 CRC 67412085
音轨未在 AccurateRip 数据库中
复制成功

音轨 10

文件名 G:CD抓轨后目录Under The Same Sun.wav

峰值电平 100.0 %
音轨质量 100.0 %
复制 CRC A305CAB0
音轨未在 AccurateRip 数据库中
复制成功

音轨 11

文件名 G:CD抓轨后目录Celebration '94 (Remix).wav

峰值电平 100.0 %
音轨质量 100.0 %
复制 CRC 8CD167C4
音轨未在 AccurateRip 数据库中
复制成功

音轨 12

文件名 G:CD抓轨后目录Luz, Amor y Vida - Carlos Santana.wav

峰值电平 89.2 %
音轨质量 100.0 %
复制 CRC E38ABF9C
音轨未在 AccurateRip 数据库中
复制成功

音轨 13

文件名 G:CD抓轨后目录Anthem (Al, Al, Al, Al).wav

峰值电平 100.0 %
音轨质量 100.0 %
复制 CRC 5ABB67D3
音轨未在 AccurateRip 数据库中
复制成功

音轨 14

文件名 G:CD抓轨后目录Gloryland [Instrumental].wav

峰值电平 91.0 %
音轨质量 99.9 %
复制 CRC 9C8D4A21
音轨未在 AccurateRip 数据库中
复制成功


没有任何音轨出现在 AccurateRip 数据库中

没有错误发生

状态报告结尾
Exact Audio Copy V0.99 prebeta 5 from 4. May 2009

EAC 抓取日志文件从29. 五月 2010, 22:10

未知艺术家 / 未知标题

使用驱动器 :TSSTcorpCDDVDW TS-L633C Adapter: 1 ID: 0

读取模式 : 保护
使用精确流 : 是
废除音频缓冲 : 是
使用 C2 指针 : 否

读取偏移校正 : 6
读取 Lead-In 和 Lead-Out : 否
用静音填充抓取中丢失偏移的采样 : 是
去除首尾静音块 : 否
在 CRC 计算中使用了空样本 : 否
已用接口 : Win NT 及 2000 本地 Win32 接口
间隙处理 : 未检出,故附加至前一音轨

所用输出格式 : 内部 WAV 函数
样本格式 : 44.100 Hz;16 Bit;立体声


被抓轨 CD 的 TOC

音轨 | 开始 | 长度 | 起始扇区 | 结尾扇区
--------------------------------------------------
1 | 0:00.00 | 2:27.32 | 0 | 11056
2 | 2:27.32 | 4:15.35 | 11057 | 30216
3 | 6:42.67 | 3:22.67 | 30217 | 45433
4 | 10:05.59 | 5:28.10 | 45434 | 70043
5 | 15:33.69 | 6:24.12 | 70044 | 98855
6 | 21:58.06 | 6:06.01 | 98856 | 126306
7 | 28:04.07 | 5:12.14 | 126307 | 149720
8 | 33:16.21 | 5:15.39 | 149721 | 173384
9 | 38:31.60 | 3:20.67 | 173385 | 188451
10 | 41:52.52 | 4:16.60 | 188452 | 207711
11 | 46:09.37 | 4:45.63 | 207712 | 229149
12 | 50:55.25 | 4:48.06 | 229150 | 250755
13 | 55:43.31 | 4:06.50 | 250756 | 269255
14 | 59:50.06 | 4:17.45 | 269256 | 288575
15 | 64:07.51 | 4:23.18 | 288576 | 308318
16 | 68:30.69 | 4:20.70 | 308319 | 327888
17 | 72:51.64 | 4:17.45 | 327889 | 347208


音轨 7

文件名 G:CD抓轨后目录Un'estate.Italiana.1990年世界杯足球赛主题曲.意大利之夏.wav

峰值电平 54.3 %
音轨质量 100.0 %
复制 CRC 7CF11C7D
音轨未在 AccurateRip 数据库中
复制成功

音轨 8

文件名 G:CD抓轨后目录We.Are.The.Champions.我们是冠军.wav

峰值电平 52.3 %
音轨质量 100.0 %
复制 CRC 893F039B
音轨未在 AccurateRip 数据库中
复制成功


没有任何音轨出现在 AccurateRip 数据库中

没有错误发生

状态报告结尾

[b]
前排留名,感谢LZ分享


楼主终于出现了,今夏世界杯完美了
看到 BON JOVI 的荣誉之光 我流了。

老邦啊,It's my life

呵呵,才加精华,重新供源!抓紧下啦。嘿嘿。
这个赞啊,终于出现了。一直找不着呢。


三套世界杯专辑争取小组赛前完成,yeah!!!

朋友还少哪些?我90年的过些日子会弄到,到时候发布,期待中!
专辑介绍太少了,请楼主增加相关的介绍