《水星领航员第三季主题曲》(ARIA The Origination)[OP&ED Single][附BK][APE+MP3(320Kbps)]

《水星领航员第三季主题曲》(ARIA The Origination)[OP&ED Single][附BK][APE+MP3(320Kbps)]
  • 片  名  《水星领航员第三季主题曲》(ARIA The Origination)[OP&ED Single][附BK][APE+MP3(320Kbps)]
  • 简  介  发行时间: 2008年01月23日对白语言: 日语
  • 类  别  动漫
  • 小  类  动漫周边


  • 详细介绍中文名: 水星领航员第三季主题曲英文名: ARIA The Origination版本: [OP ED Single][附BK][APE+MP3(320Kbps)]发行时间: 2008年01月23日地区: 日本对白语言: 日语简介:
    【剧情介绍】
    公元2301年,经过未来科技的改造,人类成功将一颗蛮荒的行星改造成为充满水的“水星”,名了 “Aqua”,随着源源不断到来的移民,Aqua开始变成了繁华的旅游城市,在这里有着一种专门由女性担当的职业——水之领航员,她们划着小船,带领游客四处观光。15岁的女孩水无灯里怀抱着对水之领航员的向往,从遥远的地球来到了Aqua的旅游圣地之一的新维内茨亚市,立场要成为一名优秀的水之领航员……
    【单曲介绍】
    アニメ「ARIA The ORIGINATION」オープニングテーマ: スピラーレ
    商品番号: VTCL-35016
    メディア: CD
    組枚数: 1
    発売日: 2008/01/23
    価格: 1155円(税込)
    【Artist Cast】
    牧野由依 (アーティスト) 河井英里 (作詞者) 
    窪田ミナ (作曲者) 伊藤利恵子 (作詞者) 
    桜井康史 (編曲者)
    [内容]
    牧野祭り最終章 アニメ「ARIA The ORIGINATION」オープニングテーマ 今作も大ヒットシングル「ウンディーネ」「ユーフォリア」を生み出した牧野由衣×窪田ミナ×河井英里の強力布陣が再び集結。カップリング曲では牧野自身がピアノ演奏を披露する予定。
    【收录曲目】
    1.スピラーレ
    2.横顔 -acoustic version-
    3.スピラーレ(Instrumental)
    4.横顔 -acoustic version-(Instrumental)
    【单曲介绍】
    アニメ「ARIA The ORIGINATION」エンディングテーマ: 金の波 千の波
    商品番号: VTCL-35018
    メディア: CD
    組枚数: 1
    発売日: 2008/01/23
    価格: 1050円(税込)
    【Artist Cast】
    新居昭乃 (アーティスト) 保刈久明 (作曲者)
    [内容]
    アニメ「ARIA The ORIGINATION」のエンディングテーマ 新居昭乃の解釈で「ARIAシリーズ」の幸福感を描いた、光溢れるポップチューン
    【收录曲目】
    1.金の波 千の波
    2.鳥かごの夢
    3.金の波 千の波(w/o akino)
    4.鳥かごの夢 (w/o akino)
    补充说明:由于已有人在日韩音乐区发过“金の波 千の波”的Mp3了,因此这一贴只提供APE无损档。需要MP3格式的同学请点击:“这里”。
  • 《水星领航员第三季主题曲》(ARIA The Origination)[OP&ED Single][附BK][APE+MP3(320Kbps)]_large

精选评论

水星的东西不收,天理不容啊
出来了出来了0 0~真快XD
新居昭乃 (アーティスト) 保刈久明 (作曲者)
冲着这个CAST我也要把碟DOWN了>,<~
YUI表现的不错,治愈声依旧美好XD~但是个人更喜欢第1季和第2季的OP就是了///v///
啊啊啊啊~~~新居大爱啊~~>_<我等新居的这张[金の波 千の波]的单曲已经等好久了~~新居&保刈万岁~~啊~当然YUI酱的OP也要顶一下的~~
不过LZ发布的速度好快啊...............在日本是1月23日发售的吧.......LZ居然第二天就发布出来了耶~~~>_<
的确如上楼同志所说的1 2季的OP ED更好听,但细细品位3中的OP 和ED 不绝让人感到一丝淡淡的忧伤的美,个人感觉这可能跟3季的后续故事剧情有关联。
同意6楼的说法,感觉第3季度的ED跟每集动画衔接的比较好,而且有时候还跟预告连接的不错.
OP还是那句话:极品中的极品
O是水星的大粉丝啊!哦都用水星的歌做了手机的铃声!看腻了打打杀杀和LVOELVOE类的在看水星简直就是享受啊!这个故事太美了!如果有高清晰的哦一定收藏搞清的!¨V¨太美了!
APE,OP里的CUE文件貌似不能分割的说ED的就能难道是我的foobar2000的问题?如果楼主在的话清查看下谢谢了!
刚刚检查了,OP的无损档的cue的第2行有个错误,多了一个“号。(是我的失误,抱歉=.=)
解决办法:
1.请用写字板打开CDImage.cue这个文件,把第2行的Title后面的引号去掉一个。正确的cue应为:
[codebox]CATALOG 4580226561074
TITLE "ARIA The ORIGINATION ED - スピラーレ/牧野由依"
FILE "CDImage.ape" WAVE
TRACK 01 AUDIO
TITLE "スピラーレ"
PERFORMER "牧野由依"
ISRC JPG750700236
INDEX 01 00:00:00
TRACK 02 AUDIO
TITLE "横顔 -acoustic version-"
PERFORMER "牧野由依"
ISRC JPG750700237
INDEX 00 05:38:67
INDEX 01 05:41:24
TRACK 03 AUDIO
TITLE "スピラーレ(Instrumental)"
PERFORMER "窪田ミナ"
ISRC JPG750700238
INDEX 00 10:31:68
INDEX 01 10:35:25
TRACK 04 AUDIO
TITLE "横顔 -acoustic version-(Instrumental)"
PERFORMER "伊東利恵子"
ISRC JPG750700239
INDEX 00 16:14:17
INDEX 01 16:16:49[/codebox]

2.如果不想自己修改cue,可以下载一个我已经改好的cue,请点击“这里”。 或登录Mofile,使用提取码 5007171168690219 提取文件。cue很小,不到1k,很快就能下好。

感谢huayue1982同学指出错误。在此为我的粗心给大家带来的不便表示万分的歉意。
汗,发现这里不支持BBCode,上面把BBS代码都显示出来了。为避免误导,cue我再重新贴一下:

CATALOG 4580226561074
TITLE "ARIA The ORIGINATION ED - スピラーレ/牧野由依"
FILE "CDImage.ape" WAVE
TRACK 01 AUDIO
TITLE "スピラーレ"
PERFORMER "牧野由依"
ISRC JPG750700236
INDEX 01 00:00:00
TRACK 02 AUDIO
TITLE "横顔 -acoustic version-"
PERFORMER "牧野由依"
ISRC JPG750700237
INDEX 00 05:38:67
INDEX 01 05:41:24
TRACK 03 AUDIO
TITLE "スピラーレ(Instrumental)"
PERFORMER "窪田ミナ"
ISRC JPG750700238
INDEX 00 10:31:68
INDEX 01 10:35:25
TRACK 04 AUDIO
TITLE "横顔 -acoustic version-(Instrumental)"
PERFORMER "伊東利恵子"
ISRC JPG750700239
INDEX 00 16:14:17
INDEX 01 16:16:49
嗯……我也很期待这季度也有ROUND TABLE featuring NINO的歌曲,但没有也可以接受……毕竟还是怀念第一季那首ED"RAINBOW"!个人感觉那是最PERFECT的一首ED!
楼主真是敬业,呵呵,收下了,谢谢楼主!
下,喜欢水星领航员
横顔 -acoustic version-
其他的都有了。。。我是冲着这首来的。。。