雨天&杨蔓 -《世间情歌》[APE]

雨天&杨蔓 -《世间情歌》[APE]
  • 片  名  雨天&杨蔓 -《世间情歌》[APE]
  • 简  介  发行时间: 2007年01月01日地区: 大陆语言: 普通话
  • 类  别  音乐
  • 小  类  华语音乐


  • 详细介绍专辑中文名: 世间情歌歌手: 雨天 杨蔓资源格式: APE发行时间: 2007年01月01日地区: 大陆语言: 普通话简介:
    专辑介绍:
    剖析现代男女内心告白 爱情无法倒带 情歌演绎永恒…… 歌声与心灵的邂逅,如情人成为心中永远的牵挂。
    - 序 -
    爱情无法倒带,情歌却演绎无尽的爱。人世间的爱恨纠缠,情爱中的酸甜苦辣都如似水流年,一去不复返,唯有情歌永远留在记忆的深处。懵懂少年因为爱所以爱,轰轰烈烈而不顾后果;热血青年为爱傻也愿意,苦也愿意;成熟中年追求平淡真实的爱情,所爱的人过得好就心满意足;夕阳老年偶尔追忆丢失的爱情,却更珍惜互相扶持走过一生的伴侣。情歌是唯美爱情的写照,在优美的旋律中,在动人的歌词中,我们感受着初恋的青涩、暗恋的忐忑、热恋的甜蜜和相恋携手的理解及支持。也许我们彼此在现实中分开,却也在记忆中搀扶走过。
    《世间情歌》是雨天 杨蔓首张浪漫经典对唱专辑。杨蔓的声线如丝缎般顺滑,雨天的声音磁性中略带沙哑。此专辑中“蔓”声温柔而甜美,“雨”声稳重而深沉,两把互补的嗓音超高水平地融合在一起,张弛有度、快慢得当,各就各位、层次分明,配合得完美和谐。就如一对才子佳人、神仙眷侣般相慕相牵,让人艳羡不已。他们的声音组合简直是绝配。我们可以感受到两道暖流在耳边穿梭、碰撞,擦出迷人的火花,并点燃了你我心中的烟火,绽放出触动心弦的绚烂。尤其其中一首《不愿放开你的手》是雨天本人作词作曲的原创作品,经过杨蔓的点缀,完全把现实世界里男女分别时的微妙情绪表达出来,伤感的歌声直达多情男女心中最脆弱处,眼泪禁不住在回忆中流连忘返。
    本专辑网罗各大经典情歌,有热辣辣的表白、缠绵悱恻的你侬我意、依依惜别的思念......形式风格多样,新颖而有创意的编曲,或活泼、或柔情、或悲情,打造完全适合杨蔓和雨天对唱的歌曲,完美的录音效果把声音中的颗粒韵味钜无细小展露无遗,掀起男女情歌对唱的新风尚。雨天 杨蔓超强组合,演绎出现代男女的内心世界,唱出了现代男女的心声,带给你焕然一新的听觉感受。
    不需要CUE文件 APE文件自带
  • 雨天&杨蔓 -《世间情歌》[APE]_large

精选评论

CUE?
CUE?
way?
PERFORMER "世间情歌"
TITLE "世间情歌"
FILE "CDImage.ape" WAVE
TRACK 01 AUDIO
TITLE "你好就好"
PERFORMER "雨天&杨蔓"
REM DATE 2007
INDEX 01 00:00:00
TRACK 02 AUDIO
TITLE "千里之外"
PERFORMER "雨天&杨蔓"
REM DATE 2007
INDEX 01 03:40:20
TRACK 03 AUDIO
TITLE "女人不该让男人累"
PERFORMER "雨天&杨蔓"
REM DATE 2007
INDEX 01 08:03:08
TRACK 04 AUDIO
TITLE "男人不该让女人流泪"
PERFORMER "雨天&杨蔓"
REM DATE 2007
INDEX 01 12:34:09
TRACK 05 AUDIO
TITLE "世间情歌"
PERFORMER "雨天&杨蔓"
REM DATE 2007
INDEX 01 17:10:49
TRACK 06 AUDIO
TITLE "接受我的爱"
PERFORMER "雨天&杨蔓"
REM DATE 2007
INDEX 01 22:17:42
TRACK 07 AUDIO
TITLE "因为爱所以爱"
PERFORMER "雨天&杨蔓"
REM DATE 2007
INDEX 01 25:55:42
TRACK 08 AUDIO
TITLE "因为爱所以恨"
PERFORMER "雨天&杨蔓"
REM DATE 2007
INDEX 01 30:37:64
TRACK 09 AUDIO
TITLE "不愿放开你的手"
PERFORMER "雨天&杨蔓"
REM DATE 2007
INDEX 01 35:20:64
TRACK 10 AUDIO
TITLE "陪着我一直到世界的尽头"
PERFORMER "雨天&杨蔓"
REM DATE 2007
INDEX 01 39:30:17
TRACK 11 AUDIO
TITLE "一路上有你"
PERFORMER "雨天&杨蔓"
REM DATE 2007
INDEX 01 44:37:66
TRACK 12 AUDIO
TITLE "留什么给你"
PERFORMER "雨天&杨蔓"
REM DATE 2007
INDEX 01 49:25:51
TRACK 13 AUDIO
TITLE "至少还有你"
PERFORMER "雨天&杨蔓"
REM DATE 2007
INDEX 01 54:18:38
TRACK 14 AUDIO
TITLE "有你真好"
PERFORMER "雨天&杨蔓"
REM DATE 2007
INDEX 01 58:55:44
TRACK 15 AUDIO
TITLE "陪你一起老"
PERFORMER "雨天&杨蔓"
REM DATE 2007
INDEX 01 63:41:39
TRACK 16 AUDIO
TITLE "香水有毒"
PERFORMER "雨天&杨蔓"
REM DATE 2007
INDEX 01 68:42:56
下载欣赏,谢谢了。
没源了,哪位能补一下源啊,多谢啦。
感谢楼主分享,感谢4楼提供cue文件!
感谢楼主、感谢四楼的朋友!
强人强帖,严重支持,发烧的大大的好,值得推介,感谢4楼提供cue文件!
很不错,音质也很好,顶了。
哪位大哥教教我CUE怎么做出来的啊 ,急死了
喜欢杨蔓的歌声,感谢楼主