Enya 恩雅 -《雨过天晴》(A Day Without Rain)New Age[APE]

Enya 恩雅 -《雨过天晴》(A Day Without Rain)New Age[APE]
  • 片  名  Enya 恩雅 -《雨过天晴》(A Day Without Rain)New Age[APE]
  • 简  介  发行时间: 2000年11月21日
  • 类  别  音乐
  • 小  类  古典音乐


  • 详细介绍简介: 专辑介绍:
      新专辑《A Day Without Rain》可说是恩雅穷毕生的音乐实力所展现的心血,单曲“Only Time”的MTV不但有媲美电影《美梦成真》的特效处理画面,恩雅更首度在MTV中有四款典雅造型出现,为了符合四季时光的情境,恩雅从春花、夏雨、秋叶、冬雪都以温柔歌声和都会风情万种地出现,连淋雨这样的镜头都在所不惜,亲自体验自然的感受,MTV果真斥资打造恩雅最美的一面,恩雅看起来更显年轻。
      此外,虽然闭关许久,恩雅还是能跟上时代潮流,她的官方网站http://www.enya-online.com/也在日前开站,恩雅诚挚欢迎全球歌迷上网下载并试听她的新歌,网站的询问热度竟然不输偶像团体!恩雅新专辑的国际发行日是本月20号,而台湾再度领先全球,提早在16日发行。  
     “我的音乐最希望能带给人们感动,每次的音乐对我来说都像发第一张专辑一样”,虽然身为唱片界的老将,久未发片的恩雅仍不免紧张,不过从亚马逊网站目前销售看来,恩雅没发片就打入前十位,可见恩雅的歌迷并没因为五年未闻其声而遗忘她。
      恩雅(Enya)的音乐是天地间最美的心灵对话,她透过《The Celts》幽静的民族情怀,《Watermark》清澄的水样音质,《Shepherd Moons》皎洁如明月的情感,《The Memory Of Trees》伫立的树林回忆, 从大地、星空、水影、明月、树丛之间投射出不朽的古老传奇,映照着爱与梦想满溢的人生,全球4400万张专辑销售,恩雅诗情美感的旋律激发了无数急需翱翔的思绪。以民谣的旋律为主,电子合成器的意境营造为辅,衬以古典音乐的思维。
      2000年最新专辑《a day without rain》,在谱曲创作时纯就心情与洞察力着墨,希望藉由最深处的情感来启发听者,试着将听者的情感转化到恩雅的旋律世界,新作仍由制作人尼奇雷恩与词曲创作家萝玛雷恩这组夫妻档协力雕琢,新作并未借助计算机化乐器与众多的乐师,完全是三人亲自动手包办,营造出当今乐坛最欠缺的温暖度。
      意境与感觉的均衡,让新专辑《a day without rain》依循着梦境编织、意境形成、传说寓言、心情流转、豁然体悟的罗盘,寻访感觉的驿站,同名标题曲以简单的钢琴声让所有的心情顺着眼神眺望着窗外,沉寂多时的心房重新有了新的期待,藏在脑海远程的儿时记忆就这样跟着“wild child”缓缓动了起来,一种希望与喜悦交会的感觉从记忆堆里重新拾获,美丽的爱情远走,无由的哀愁随着“only time”的歌声涌上心头,而当爱情灭绝,心泣莫名,欲盖弥彰的绝望凄情,时间竟是情感现场唯一的目击者,“flora s secret”从古老神圣的气氛里,花神悄悄捎来爱的消息,但却又在一瞬间的安魂曲式中,坠入为爱黯然神伤的心灵角落,直到非常阳光的“lazy days”扬起,全新的感觉之路无尽的开展,但愿能在恣意的梦想空间,唤醒尘封许久的记忆,还原曾有的美丽与哀愁。
    以下介绍来自Amazon:
    As each new Enya release has washed over all who have ears to hear, as each heaven-touched work leaves admirers sitting speechless in slack-jawed wonder, questions eventually come to mind: Might her layered, choral-like approach gradually become predictable or stale? Will she ever exhaust her deep reservoir of soul-stirring ideas? Remarkably, A Day Without Rain, Enya s fourth release since her 1988 breakthrough, Watermark, establishes new artistic heights for the gifted Irish vocalist and keyboardist. The project, polished and refined over a five-year period in the company of longtime collaborators Nicky Ryan (producer) and Roma Ryan (lyricist), may qualify as her best yet
  • Enya 恩雅 -《雨过天晴》(A Day Without Rain)New Age[APE]_large

精选评论

cue文件有问题,怎么没有更新?
嗯,是有点问题,只好自己解决了,

会的是无所谓,但对于有些新手就比较棘手了,
得闲时修改下也无妨.
方便一下大家。。

PERFORMER "Enya"
TITLE "A Day Without Rain"
FILE "CDImage.ape" WAVE
TRACK 01 AUDIO
TITLE "A Day Without Rain"
INDEX 01 00:00:00
TRACK 02 AUDIO
TITLE "Wild Child"
INDEX 01 02:38:17
TRACK 03 AUDIO
TITLE "Only Time"
INDEX 01 06:25:12
TRACK 04 AUDIO
TITLE "Tempus Vernum"
INDEX 01 10:04:15
TRACK 05 AUDIO
TITLE "Deora Ar Mo Chro"
INDEX 01 12:28:35
TRACK 06 AUDIO
TITLE "Flora's Secret"
INDEX 01 15:17:32
TRACK 07 AUDIO
TITLE "Fallen Embers"
INDEX 01 19:24:70
TRACK 08 AUDIO
TITLE "Silver Inches"
INDEX 01 21:55:72
TRACK 09 AUDIO
TITLE "Pilgrim"
INDEX 01 23:33:65
TRACK 10 AUDIO
TITLE "One By One"
INDEX 01 26:46:42
TRACK 11 AUDIO
TITLE "The First of Autumn"
INDEX 01 30:41:15
TRACK 12 AUDIO
TITLE "Lazy Days"
INDEX 01 33:51:20
原来的 .cue 文件只要稍作修改就可以了:

在第22行结尾处少了个引号,漏写了个 i ,把原来的问号去掉,加上 i 和引号,补全成:
TITLE "Deora Ar Mo Chroi"
就行了
haha
很多谢楼上的无私~~~~
多謝拉XDD
這張經典的說XDD
谢谢4楼!
没有想到2006发布的资源,现在还有“源”——感谢作者,感谢保源者!
我也加入了这个队列——大凡精妙绝伦的资源我一律做源一个星期!
为北京加油! 为中国加油!!
这个好像没源呀, 谁有源的上传一下, 谢谢了
多谢4楼的!!
我终于下了, 不过好像APE文件有问题, 用猴子都不能解压, 说识别码错误, 刻不了盘
恩雅的音乐非常好,我们感谢楼主!

下面链接好东西让大家共同分享:
Enya 恩雅 -《Complete Enya Edition 恩雅全集》[MP3!][APE]