Dave Koz -《Greatest Hits》[WV]

Dave Koz -《Greatest Hits》[WV]
  • 片  名  Dave Koz -《Greatest Hits》[WV]
  • 简  介  音乐风格: 爵士发行时间: 2008年地区: 美国语言: 英语
  • 类  别  音乐
  • 小  类  欧美音乐


  • 详细介绍专辑英文名: Greatest Hits歌手: Dave Koz音乐风格: 爵士资源格式: WV发行时间: 2008年地区: 美国语言: 英语简介: 专辑名称:Greatest Hits
    专辑歌手:Dave Koz
    发行日期:2008
    专辑语种:英语
    专辑类型:Smooth Jazz
    唱片公司:Capitol
    专辑介绍:
    Capitol于2008年9月16日发行了戴夫·考兹的最新大碟——首张精选大碟《Greatest Hits》。此辑集结了 Dave Koz 无数动人心扉的都会情调佳作,比如:音乐生涯首支征服全美软调爵士单曲榜冠军的成名曲《Castle Of Dreams》;登上全美抒情榜 Top 20 的招牌作《You Make Me Smile》;美国长青影集《General Hospital 综合医院》的主题曲《Faces Of The Heart》;戴夫·考兹个人最喜爱的作品《Lullaby For A Rainy Night》;摇摆着复古放克与嘻哈快意,由绝响的节奏蓝调金嗓艺人 Luther Vandross 担纲演唱的全美软调爵士单曲榜冠军情歌《Can't Let You Go (Sha La Song)》;由葛莱美奖提名歌手 Brian McKnight 担任演唱的柔美情歌《Love Changes Everything》;尽情挥洒放克神采的全美软调爵士单曲榜冠军曲《Honey-Dipped》、《All I See Is You》等等。
    精选大碟中的四首全新创作曲,则包含戴夫·考兹试着用旋律捕捉18年音乐里程的心情律动,打进全美软调爵士单曲榜 Top 10 的《Life In The Fast Lane》;由制作过《Green Day》专辑的名制作人 Rob Cavallo 首度为演奏乐艺人所操刀制作的作品《And Then I Knew》;担任音乐剧《紫色姊妹花》演出的传奇福音歌手 BeBe Winans 所献唱的感人歌曲《I Can》;与曾经担任 Rod Stewart 专辑录音与巡回演唱的伴奏乐手的爵士吉他手 Jeff Golub 连手合作的《Bada Bing》。
    资源来自: 爵士俱乐部
    引用Exact Audio Copy V0.99 prebeta 4 from 23. January 2008
    EAC extraction logfile from 20. October 2008, 21:04
    Dave Koz / Greatest Hits
    Used drive : _NEC DVD_RW ND-4551A Adapter: 1 ID: 0
    Read mode : Secure
    Utilize accurate stream : Yes
    Defeat audio cache : Yes
    Make use of C2 pointers : No
    Read offset correction : 48
    Overread into Lead-In and Lead-Out : No
    Fill up missing offset samples with silence : Yes
    Delete leading and trailing silent blocks : No
    Null samples used in CRC calculations : Yes
    Used interface : Native Win32 interface for Win NT 2000
    Used output format : Internal WAV Routines
    Sample format : 44.100 Hz; 16 Bit; Stereo
    TOC of the extracted CD
    Track | Start | Length | Start sector | End sector
    ---------------------------------------------------------
    1 | 0:00.00 | 4:17.45 | 0 | 19319
    2 | 4:17.45 | 3:54.45 | 19320 | 36914
    3 | 8:12.15 | 4:16.50 | 36915 | 56164
    4 | 12:28.65 | 3:42.10 | 56165 | 72824
    5 | 16:11.00 | 4:13.26 | 72825 | 91825
    6 | 20:24.26 | 4:24.22 | 91826 | 111647
    7 | 24:48.48 | 5:06.71 | 111648 | 134668
    8 | 29:55.44 | 4:09.63 | 134669 | 153406
    9 | 34:05.32 | 4:46.53 | 153407 | 174909
    10 | 38:52.10 | 5:12.24 | 174910 | 198333
    11 | 44:04.34 | 4:56.04 | 198334 | 220537
    12 | 49:00.38 | 4:47.35 | 220538 | 242097
    13 | 53:47.73 | 4:01.44 | 242098 | 260216
    14 | 57:49.42 | 5:19.30 | 260217 | 284171
    15 | 63:08.72 | 4:59.33 | 284172 | 306629
    Range status and errors
    Selected range
    Filename C:Dave Koz - Greatest HitsDave Koz - Greatest Hits.wav
    Peak level 100.0 %
    Range quality 100.0 %
    Copy CRC 8E7FCECB
    Copy OK
    No errors occurred
    AccurateRip summary
    Track 1 not present in database
    Track
  • Dave Koz -《Greatest Hits》[WV]_large

精选评论

07. Emily是我的大爱
谢谢楼主!一会就去下载。

Together Again,这首不错。
哈哈,等到了!!!!
还没听过...
俺是戴粉,他的中音萨克斯很有味道。听腻了肯尼G的可以换换口味。
看专辑封面就想下载.................
thank you !!!
Smooth Jazz,我的最爱!顶了!
听不了啊?怎么办啊?只能听见沙沙声!!
呀 我咋早不发现这帅哥那~~
戴夫的好!谢谢楼主分享
不算高产音乐人,但首首经典
等了两年又有新作出来
奇怪,用酷狗放就只有沙沙声,但是用暴风就能放出来~