张学友 -《天下第一流》[APE]

张学友 -《天下第一流》[APE]
  • 片  名  张学友 -《天下第一流》[APE]
  • 简  介  发行时间: 2001年05月25日地区: 大陆语言: 普通话
  • 类  别  音乐
  • 小  类  华语音乐


  • 详细介绍专辑中文名: 天下第一流歌手: 张学友资源格式: APE发行时间: 2001年05月25日地区: 大陆语言: 普通话简介:
    专辑介绍:
    自从《有个人》之后,歌神张学友已经有两年多没有推出广东专辑了。这两年,学友将时间多放在家庭,而一直为鼻病所苦的他,更一度传出可能会退出歌坛。不过学友已经否认引退传闻,并扬言要再唱三十年,这张全新广东专辑《天下第一流》也证明他宝刀未老,实力依然坚强。《天下第一流》收录了十一首歌,第一波主打歌‘没有童话时’,已经在香港各大排行榜占据高位;第二、三主打歌‘楼上来的声音’、‘有病呻吟’也正全城热播中,这张专辑绝对不会让等待多时的歌迷失望!
  • 张学友 -《天下第一流》[APE]_large

精选评论

这么经典的东西竟然没人支持?
嘿嘿,太奇怪了,又是板凳!支持学友
我支持!我支持!第一是沙发,第二是板凳,那第三是啥啊?
绝对支持!!!
怎么下不动啊?
前三首这最最喜欢。。。。。。。。
好似没速度了。。。
之前已下载好,今天特地回复表示感谢。
不知如何操作才能把自己下载的内容和其他朋友共享,有知道的朋友请告知。
希望还有源
冲着
似醉还未醉
来的,顶一下
刚下载完APE的,发现CUE没源了,发个上来

PERFORMER "張學友"
TITLE "天下第一流"
CATALOG 4711875203613
FILE "CDImage.ape" APE
TRACK 01 AUDIO
TITLE "樓上來的聲音"
PERFORMER "張學友"
ISRC TWA550117101
INDEX 01 00:00:00
TRACK 02 AUDIO
TITLE "有病呻吟"
PERFORMER "張學友"
ISRC TWA550117102
INDEX 00 04:12:00
INDEX 01 04:14:00
TRACK 03 AUDIO
TITLE "天下第一流"
PERFORMER "張學友"
ISRC TWA550117103
INDEX 00 07:41:25
INDEX 01 07:43:25
TRACK 04 AUDIO
TITLE "失戀事小"
PERFORMER "張學友"
ISRC TWA550117103
INDEX 00 11:55:13
INDEX 01 11:57:13
TRACK 05 AUDIO
TITLE "如初"
PERFORMER "張學友"
ISRC TWA550117104
INDEX 00 15:16:38
INDEX 01 15:18:38
TRACK 06 AUDIO
TITLE "沒有童話時"
PERFORMER "張學友"
ISRC TWA550117001
INDEX 00 19:53:38
INDEX 01 19:55:38
TRACK 07 AUDIO
TITLE "同屋"
PERFORMER "張學友"
ISRC TWA550117106
INDEX 00 22:47:63
INDEX 01 22:49:63
TRACK 08 AUDIO
TITLE "地下情"
PERFORMER "張學友"
ISRC TWA550117107
INDEX 00 26:50:63
INDEX 01 26:52:63
TRACK 09 AUDIO
TITLE "原不原諒"
PERFORMER "張學友"
ISRC TWA550117108
INDEX 00 30:58:38
INDEX 01 31:00:38
TRACK 10 AUDIO
TITLE "似醉還未醉"
PERFORMER "張學友"
ISRC TWA550117109
INDEX 00 35:27:38
INDEX 01 35:29:38
TRACK 11 AUDIO
TITLE "慶幸"
PERFORMER "張學友"
ISRC TWA550117110
INDEX 00 39:30:25
INDEX 01 39:32:25
感谢楼上朋友提供的CUE
CUE错误啊,谁可以换过个啊