晓欣 -《醉爱》分轨[APE]

晓欣 -《醉爱》分轨[APE]
  • 片  名  晓欣 -《醉爱》分轨[APE]
  • 简  介  发行时间: 2007年08月地区: 大陆语言: 普通话
  • 类  别  音乐
  • 小  类  华语音乐


  • 详细介绍专辑中文名: 醉爱歌手: 晓欣资源格式: APE版本: 分轨发行时间: 2007年08月地区: 大陆语言: 普通话简介:
    发行出版:广州新时代影音
    ISRC:CN-F21-07-390-00/A.J6
    专辑介绍:
    如水般的旋律,清澈的声音,
    穿过河流,穿过山川,流进你我的心田......
    听一个温婉女孩低吟浅唱,喃喃细语,是如此的如痴如醉……
    高级音响的珍品,绝对超值的享受 听后让你爱不释手
    01 有没有人告诉你
    我打开离别时你送我的信件,忽然感到无比的思念
    02 想着你睡不着
    一起看着月亮一起笑,我们要一起老,老到不行不行还拥抱
    03 爸爸妈妈
    女儿总是要长大,是你教会我坚强,给我一对翅膀,我飞翔
    04 找个好人嫁了吧
    我知道我们彼此相爱却注定要分手无缘,我知道太多的付出,让你为爱而憔悴
    05 该死的温柔
    你这该死的温柔让我止不住颤抖哪怕有再多的借口我却无法再去牵你的手
    06 有一种爱叫做放手
    我的离去若让你拥有所有,让真爱带我走说分手
    07 我们都是好孩子
    看咖啡色夕阳又要落下,你说要一直爱一直好,就这样永远不分开
    08 不想让你哭
    我不想让你哭只想用我的爱再次把你留住
    09 黄昏晓
    风为什么还不走,陪着我安静等你划过,我不再问为什么,因为我懂了
    10 今天你要嫁给我
    春暖的花开带走冬天的感伤,微风吹来浪漫的气息我就在此刻突然见到你
    11 黄玫瑰
    阳光下黄色花苞的娇艳,让你忘记了玫瑰是带刺的
    12 决别诗
    出鞘剑杀气荡,风起无月的战场,美人泪断人肠,这能取人性命是胭脂烫
  • 晓欣 -《醉爱》分轨[APE]_large

精选评论

很熟的歌曲,却是另一种演绎,去掉了多余的喧闹,多了一份温柔。
好听,谢LZ!
是好听!谢谢发布.
下来听听这个~
确是精选的好歌,不错。
好听,声音清晰
O(∩_∩)O谢谢,可惜没有种+_+
优美的回想
PERFORMER "晓欣"
TITLE "醉爱"
FILE "晓欣.-.[醉爱].专辑.(APE).ape" WAVE
TRACK 01 AUDIO
TITLE "有没有人告诉你"
INDEX 01 00:00:00
TRACK 02 AUDIO
TITLE "想着你睡不着"
INDEX 01 06:03:02
TRACK 03 AUDIO
TITLE "爸爸妈妈"
INDEX 01 09:54:22
TRACK 04 AUDIO
TITLE "找个好人家了吧"
INDEX 01 14:57:15
TRACK 05 AUDIO
TITLE "该死的温柔"
INDEX 01 19:52:32
TRACK 06 AUDIO
TITLE "有一种爱叫做放手"
INDEX 01 24:50:88
TRACK 07 AUDIO
TITLE "我们都是好孩子"
INDEX 01 29:50:42
TRACK 08 AUDIO
TITLE "我不想让你哭"
INDEX 01 34:53:35
TRACK 09 AUDIO
TITLE "黄昏晓"
INDEX 01 39:45:61
TRACK 10 AUDIO
TITLE "今天我要嫁给你"
INDEX 01 44:48:54
TRACK 11 AUDIO
TITLE "黄玫瑰"
INDEX 01 49:27:72
TRACK 12 AUDIO
TITLE "决别诗"
INDEX 01 54:32:58
是好听的 温柔啊
封面真漂亮。