群星 -《十五名声Ⅵ·十大中文获奖金曲》[DSD][APE]

群星 -《十五名声Ⅵ·十大中文获奖金曲》[DSD][APE]
  • 片  名  群星 -《十五名声Ⅵ·十大中文获奖金曲》[DSD][APE]
  • 简  介  音乐风格: 流行发行时间: 2008年11月地区: 大陆语言: 粤语
  • 类  别  音乐
  • 小  类  华语音乐


  • 详细介绍专辑中文名: 十五名声Ⅵ·十大中文获奖金曲歌手: 群星音乐风格: 流行资源格式: APE版本: [DSD]发行时间: 2008年11月地区: 大陆语言: 粤语简介: 发行公司:广东阳威(国际)音乐制作有限公司
    出版公司:中国科学文化出版社
    ISRC:CN-A23-08-338-00/A.J6
    专辑介绍:
    劲歌历程,首首金曲,百听不厌 收录最具情感与怀旧的珍品,绝地典藏!

  • 群星 -《十五名声Ⅵ·十大中文获奖金曲》[DSD][APE]_large

精选评论

CUE文件名: 群星.-.[十五名声Ⅵ·十大中文获奖金曲].专辑.(ape).cue
==================================================
PERFORMER "群星"
TITLE "十五名声Ⅵ·十大中文获奖金曲"
FILE "群星.-.[十五名声Ⅵ·十大中文获奖金曲].专辑.(ape).ape" WAVE
TRACK 01 AUDIO
TITLE "迟来的爱"
PERFORMER "罗文"
INDEX 01 00:00:00
TRACK 02 AUDIO
TITLE "莱茵河之恋"
PERFORMER "麦洁文"
INDEX 00 04:29:09
INDEX 01 04:31:13
TRACK 03 AUDIO
TITLE " 难寻旧时梦"
PERFORMER "张明敏"
INDEX 00 07:19:51
INDEX 01 07:21:54
TRACK 04 AUDIO
TITLE "泥路上"
PERFORMER "卢业眉"
INDEX 00 11:04:74
INDEX 01 11:07:03
TRACK 05 AUDIO
TITLE "何必曾相识"
PERFORMER "蔡枫华"
INDEX 00 13:53:51
INDEX 01 13:55:55
TRACK 06 AUDIO
TITLE "痴心换情深深"
PERFORMER "周慧敏"
INDEX 00 17:40:31
INDEX 01 17:42:35
TRACK 07 AUDIO
TITLE "幸运就是遇到你"
PERFORMER "马骏伟"
INDEX 00 21:57:68
INDEX 01 21:59:72
TRACK 08 AUDIO
TITLE "昨天 今天 下雨天"
PERFORMER "彭家丽"
INDEX 00 25:45:43
INDEX 01 25:47:47
TRACK 09 AUDIO
TITLE "千枝针刺在心"
PERFORMER "林子祥"
INDEX 00 30:11:25
INDEX 01 30:13:29
TRACK 10 AUDIO
TITLE "电话"
PERFORMER "徐小凤"
INDEX 00 34:16:46
INDEX 01 34:18:49
TRACK 11 AUDIO
TITLE "脉搏奔流"
PERFORMER "陈百强"
INDEX 00 37:52:22
INDEX 01 37:54:26
TRACK 12 AUDIO
TITLE " 倦"
PERFORMER "叶德娴"
INDEX 00 41:59:10
INDEX 01 42:01:14
TRACK 13 AUDIO
TITLE "从头做起"
PERFORMER "苏石馨"
INDEX 00 45:51:20
INDEX 01 45:53:24
TRACK 14 AUDIO
TITLE "海潮"
PERFORMER "温碧霞"
INDEX 00 49:25:35
INDEX 01 49:27:39
TRACK 15 AUDIO
TITLE "思忆"
PERFORMER "梁球"
INDEX 00 54:30:24
INDEX 01 54:32:27
TRACK 16 AUDIO
TITLE "仍感激相爱了一年"
PERFORMER "陈容森"
INDEX 00 58:53:32
INDEX 01 58:55:35
TRACK 17 AUDIO
TITLE "把悲伤留给自己"
PERFORMER "群星"
INDEX 00 63:02:44
INDEX 01 63:04:48
TRACK 18 AUDIO
TITLE "我悄悄蒙上你的眼睛"
PERFORMER "群星"
INDEX 00 67:18:24
INDEX 01 67:20:27

========================================================================
auCDtect.exe软件检测结果:16个分轨单曲中(第5个单曲-何必曾相识-蔡枫华-是MPEG),其余15个.WAV经检测符合CDDA概率99-100%。
非喜勿载!
========================================================================
我新建的群"VeryCD华语音乐交流群" 号:62147382 ,欢迎加入!
方便与大家沟通,并及时回答提出的有关问题。
========================================================================
谢谢分享~
强顶一下,楼主谢谢你!!!!!
哥哥刚
你好象就认APE,载了多少个了?你的仓库很大对不?
对,就认APE,多少数不清,仓库两个500G,非常多谢楼主的分享精神.
再谢......
对,就认APE,支持APE,支持楼主!
谢谢VeryCD,支持楼主!
嗷~~~粤语

听不懂啊

纯支持!
支持楼主!
好多经典好歌,支持一下
TITLE "十五名声Ⅵ·十大中文获奖金曲(粤语)"
FILE ".-.[十五名声Ⅵ·十大中文获奖金曲(粤语)].专辑.(ape).ape" WAVE
==============================
Ⅰ——Ⅴ是什么?????????????
Ⅴ/Ⅵ是罗马数字,I代表数字1, II是2, III是3,IV是4,V是5,ⅤI是6, VII是7, VIII是8, IX是9, X是10, XI是11, XII是12~~~~

罗马数字出现在五线谱中通常表示把位,比如吉他,小提琴谱子上面出现V并且后面有虚线,就表示虚线内的谱子都要在五把位演奏。 罗马数字出现在乐理书籍上通常表示音级。比如C大调的C是I(一级)
,G是V(五级)。

Ⅴ是表示5,Ⅵ表示6,如果是吉他民谣六线谱子有可能是表示5级,6级建立的和弦,比如c大调5级G和弦,6级a和弦。
分享了!